#TITLE:linus' Bullshit (calm down sonny mix);
#SUBTITLE:;
#ARTIST:many artist feat. snapps;
#TITLETRANSLIT:;
#SUBTITLETRANSLIT:;
#ARTISTTRANSLIT:;
#CREDIT:;
#BANNER:bs.bn.PNG;
#BACKGROUND:bs.bg.PNG;
#LYRICSPATH:;
#CDTITLE:;
#MUSIC:linus' bullshit (calm down sonny mix).mp3;
#OFFSET:-0.080;
#SAMPLESTART:50.000;
#SAMPLELENGTH:12.000;
#SELECTABLE:YES;
#BPMS:0.000=140.000,15.833=282.000,52.000=263.100,56.000=263.880,76.750=123.000,93.000=200.000,163.000=205.000,169.250=98.000,170.000=244.000,178.000=205.000,183.000=30.000,183.125=205.000,185.000=30.000,185.125=205.000,186.000=255.001,186.500=128.000,187.250=245.000,188.000=83.000,189.000=30.000,189.125=205.000,191.000=255.000,193.000=174.000,197.000=205.000,200.500=30.000,200.750=205.000,205.000=100.000,205.063=101.220,205.125=101.820,205.188=102.020,205.250=102.820,205.313=103.620,205.375=104.420,205.438=105.220,205.500=106.020,205.563=106.820,205.625=107.620,205.688=108.420,205.750=109.220,205.813=110.020,205.875=110.820,205.938=111.620,206.000=114.020,206.063=116.420,206.125=117.220,206.188=118.020,206.250=118.820,206.313=119.620,206.375=120.420,206.438=121.220,206.500=122.020,206.563=122.820,206.625=123.620,206.688=124.420,206.750=125.220,206.813=126.020,206.875=131.620,206.938=134.020,207.000=134.820,207.063=135.620,207.125=136.420,207.188=137.220,207.250=140.420,207.313=142.820,207.375=143.620,207.438=144.420,207.500=145.220,207.563=146.020,207.625=146.820,207.688=147.620,207.750=152.420,207.813=154.820,207.875=155.620,207.938=156.420,208.000=157.220,208.063=158.020,208.125=158.820,208.188=159.620,208.250=160.420,208.313=161.220,208.375=162.020,208.438=171.620,208.500=174.020,208.563=174.820,208.625=175.620,208.688=176.420,208.750=177.220,208.813=178.020,208.875=178.820,208.938=179.620,209.000=180.420,209.063=181.220,209.125=182.020,209.188=182.820,209.250=183.620,209.313=184.420,209.375=185.220,209.438=186.020,209.500=190.020,209.563=191.620,209.625=192.420,209.688=194.020,209.750=200.420,209.813=203.620,209.875=206.820,209.938=210.020,210.000=216.040,210.063=216.640,210.125=216.840,210.188=217.640,210.250=228.840,210.313=231.240,210.375=245.640,210.438=248.040,210.500=249.640,210.563=253.640,210.625=258.440,210.688=260.840,210.750=262.440,210.813=280.840,210.875=287.240,210.938=289.640,211.000=292.040,211.063=294.440,211.125=295.240,211.188=296.040,211.250=296.840,211.313=297.640,211.375=304.840,211.438=307.240,211.500=310.439,211.563=312.039,211.625=312.839,211.688=314.439,211.750=317.639,211.813=320.839,211.875=322.439,211.938=327.239,212.000=351.659,212.063=358.859,212.125=364.459,212.188=370.859,212.250=378.059,212.313=385.258,212.375=395.658,212.438=404.458,212.500=414.058,212.563=421.258,212.625=448.458,212.688=456.457,212.750=462.057,212.813=470.857,212.875=486.057,212.938=493.257,213.000=510.057,213.063=526.056,213.125=536.456,213.188=561.256,213.250=578.856,213.313=585.255,213.375=590.855,213.438=594.855,213.500=598.855,213.563=601.255,213.625=602.855,213.688=603.655,213.813=604.455,213.875=606.055,214.000=606.855,214.063=608.455,214.125=609.255,214.250=610.855,214.313=611.655,214.375=612.455,214.438=613.255,214.563=614.055,214.625=614.855,214.688=615.655,214.750=616.455,214.813=617.255,214.875=618.055,214.938=618.855,215.000=619.655,215.063=620.455,215.125=621.255,215.188=622.055,215.250=623.655,215.375=624.455,215.438=625.255,215.500=626.855,215.625=627.655,215.688=629.255,215.750=630.055,215.813=630.855,215.875=631.655,215.938=633.255,216.000=634.855,216.063=644.875,216.125=655.275,216.188=664.874,216.250=673.674,216.313=683.274,216.375=690.474,216.438=699.274,216.500=705.674,216.563=712.874,216.625=719.274,216.688=726.473,216.750=732.873,216.813=738.473,216.875=751.273,216.938=760.073,217.000=773.673,217.063=787.273,217.125=800.072,217.188=812.872,217.250=822.472,217.313=831.272,217.375=839.272,217.438=844.872,217.500=852.072,217.563=856.071,217.625=858.471,217.688=860.071,217.750=861.671,217.813=867.271,217.875=875.271,217.938=881.671,218.000=888.011,242.000=22.000;
#STOPS:129.500=0.320
;
#BGCHANGES:;
// cache tags:
#FIRSTBEAT:0.000;
#LASTBEAT:242.000;
#SONGFILENAME:Songs/Music V.I.P ^_^/linus' bs (calm down sonny mix)/bs.sm;
#HASMUSIC:1;
#HASBANNER:1;
#MUSICLENGTH:68.213;
// end cache tags

//---------------dance-single - ----------------
#NOTES:
     dance-single:
     :
     Challenge:
     15:
     1.000,1.000,1.000,0.161,1.000,569.000,323.000,11.000,18.000,27.000:
0001
0000
0001
0000
0000
0000
0001
0000
0001
0000
0000
0000
0001
0001
0001
0001
2001
0000
0000
0000
0010
0000
0000
0000
0001
0000
0000
0000
0000
0000
0000
0000
,
0010
0100
0000
0010
0001
0000
0010
0100
,
0000
0010
0001
0000
0000
0010
0001
0000
,
0010
0000
0000
0000
0000
0000
0100
0000
0000
0000
0000
0000
0000
0000
0000
0000
0000
0000
0010
0000
0000
0000
0000
0000
0001
0000
0000
0000
0000
0000
0000
0000
0000
0000
0000
0000
0010
0000
0000
0000
0000
0000
0100
0000
0000
3000
1110
0000
,
0000
0000
0000
1110
0000
0000
0000
1110
0000
0000
0000
1110
0000
0000
0000
1101
0000
0000
0000
1101
0000
0000
0000
1101
,
0000
0000
0000
1101
0000
0000
0000
0000
0000
0010
0000
0000
0000
0001
0000
1000
0000
0000
0100
0010
0000
0001
0000
0000
,
1100
0000
0000
0000
0000
0000
0110
0000
0001
0000
0000
0000
1100
0000
0000
0000
0000
1000
0102
0000
0000
0000
0000
0000
,
0123
0000
0000
0000
0000
0000
0231
0000
0000
0000
0000
0000
1310
0000
0000
0000
0000
0000
1010
0100
0010
0000
0000
0000
,
0110
0000
0000
0000
0000
0000
1100
0000
0001
0000
0000
0000
1100
0010
0001
0000
0000
0000
0100
0000
0000
0000
0000
0000
,
0110
0000
0000
0000
0000
0000
0100
1000
0000
0100
0000
0010
0100
0000
0000
0000
0000
0000
1100
0000
0001
0000
0000
0000
,
0110
0000
0000
1100
0001
0000
0110
0000
0000
0101
1000
0000
,
0102
0123
1230
1300
,
1000
0000
0000
1000
0100
0010
1001
0100
0001
1100
0001
0100
,
1001
0110
0011
0110
1100
0110
0011
0110
,
1000
0100
0010
0001
0001
0010
0100
1000
1000
0100
0010
0001
0001
0010
0100
1000
,
1000
0001
0010
0100
1000
0100
0010
1000
0101
0000
1010
0000
0110
0000
0101
0000
,
0110
0000
1001
0000
0110
0000
1100
0000
0011
0000
0110
0000
1000
0010
0100
0001
,
1000
1000
0100
0010
0001
0100
1000
0010
0100
0100
0001
0010
1000
1000
0100
0010
,
0001
1001
1100
0110
1001
0110
0110
0011
,
0110
0000
1100
1100
1010
1100
1001
1000
1000
1000
1001
1000
1000
1000
1010
1000
,
1000
1000
1010
1000
1000
1000
1001
1000
1000
1000
1001
1000
1100
1010
1001
1000
,
1000
1000
1001
1000
1100
1010
1001
1010
1100
1010
1001
1100
1010
1100
1001
1010
,
1100
0000
1001
0000
1100
0000
1010
0000
1100
0000
1010
0000
1001
0000
1010
0000
1100
0000
1010
0000
1100
0000
1010
0000
1001
0000
1010
0100
1010
0100
1010
0000
,
1001
1010
1100
1010
1001
0001
1000
0001
1000
0001
1000
0001
1000
0001
1000
0001
,
1000
0001
1000
0001
1000
0001
1000
0001
1000
0001
1000
0000
1100
0000
0000
0000
1010
0000
0000
0000
0110
0000
0000
0000
0101
0000
0000
0000
0011
0000
0000
0000
,
0101
0110
1010
1100
1010
0110
0101
0011
,
0101
0110
1010
1100
1010
0110
0101
0011
,
0101
0110
1010
1100
1010
0110
0101
0011
,
0101
0000
0110
0000
1010
0000
1010
1010
1010
1010
1010
0000
1010
1010
1010
1010
,
1010
0000
0101
0101
0101
0101
1010
1010
1010
1010
1010
0000
1010
1010
1010
1010
,
1010
0000
0110
0110
0110
0110
0101
0101
0101
0101
0101
0000
0101
0101
0101
0101
,
0101
0000
0011
0011
0011
0011
1111
1111
1111
1111
1111
0000
1111
1111
1111
1111
,
1111
0000
1111
1111
1111
1111
1001
0000
0000
0000
0000
0000
0000
0000
0000
0000
,
1010
0100
1000
0010
0100
0001
1010
0010
0100
1000
0010
0100
0011
0001
1000
0010
,
1100
0010
0001
1000
0110
0001
1000
0100
0011
1000
0001
0100
0010
0100
1010
0001
,
0100
0010
1001
0010
0100
0001
1000
0010
1100
0010
0001
0100
0010
1000
0101
0010
,
0001
0100
0011
1000
0010
0100
1010
0001
1001
0100
1000
0010
0001
0100
0010
0100
,
1000
0100
1010
0001
0010
0100
0010
0001
1001
0100
0010
1000
0011
0100
0010
0100
,
0001
0100
0110
1000
0011
0100
0010
0001
1010
0100
1000
0010
1001
0100
0010
0100
,
1010
0100
0010
0001
0010
0100
0010
0001
1000
0100
0011
1000
1010
0100
0001
0100
,
0011
1000
0010
0100
0001
1000
0100
0010
1000
0001
0100
0010
1100
0011
1100
0011
,
1100
0011
1100
0011
1100
0000
0011
0000
0110
0000
1100
0000
0110
0000
0011
0000
,
0110
1100
0110
0011
0110
1100
0110
0011
,
0110
1100
0110
0011
0110
1100
0110
0011
,
0110
1100
0110
0011
0110
1100
0110
0011
,
0110
1100
0110
0011
0110
1100
0110
0011
,
0110
1100
0110
0011
0110
1100
0110
0011
,
0110
1100
0110
0011
0110
1100
0110
0011
,
0110
1100
0110
0011
0110
1100
0110
0011
,
0110
0000
1100
0000
0110
0110
0110
0110
0110
0110
0110
0110
0110
0110
0110
0110
,
0110
0110
0110
0110
0110
0110
0110
0110
0110
0110
0110
0110
0110
0110
0110
0110
,
0110
0110
0110
0110
0220
0000
0000
0000
0000
0000
0000
0000
0000
0000
0000
0000
,
0000
0000
0000
0000
,
0000
0000
0000
0000
,
0330
0MM0
0MM0
0MM0
0MM0
0MM0
0MM0
0MM0
0MM0
0MM0
0000
0000
0000
0000
0000
0000
0000
0000
0000
0000
0000
0000
0000
0000
0000
0000
0000
0000
0000
0000
0000
0000
2002
0000
0000
0000
0000
0000
0000
0000
0000
0000
0000
0000
0000
0000
0000
0000
0000
0000
0000
0000
0000
0000
0000
0000
0000
0000
0000
0000
0000
0000
0000
0000
,
0000
0000
0000
0000
,
0000
0000
0000
0000
,
0000
0000
0000
0000
,
0000
0000
0000
0000
,
0000
0000
0000
0000
,
0000
0000
3003
0000
;
